Shakuntala.Devi.2020.720p.AMZN.WEBRip.6CH.x264.LLG

  • Category Movies
  • Type HD
  • Language Hindi
  • Total size 1.1 GB
  • Uploaded By LifeLongg
  • Downloads 1399
  • Last checked 6 days ago
  • Date uploaded 1 week ago
  • Seeders 44
  • Leechers 24

Shakuntala Devi

DramaFamilyComedy

Based on the life of Shakuntala Devi who is a well-known mathematical genius and calculating progidy from India. She has been nicknamed 'Human Computer' because of her extraordinary talent and skill in solving complex mathematical problems without any mechanical aid.

Infohash : 50111DEF684B358E5B2602DF18DD94644E5AC6C2

Quote:




******************************Thumbnail:**********************



******************************Screenshots:********************

screenshot 1

screenshot 2

screenshot 3

screenshot 4

screenshot 5

screenshot 6

screenshot 7

screenshot 8

screenshot 9

screenshot 0


******************************************************

Shakuntala.Devi.2020.720p.AMZN.WEBRip.6CH.x264.LLG.mp4
Format : MPEG-4
Format profile : Base Media
Codec ID : isom (isom/iso2/avc1/mp41)
File size : 1.09 GiB
Duration : 2 h 7 min
Overall bit rate mode : Variable
Overall bit rate : 1 223 kb/s
Writing application : Lavf57.83.100

Video
ID : 1
Format : AVC
Format/Info : Advanced Video Codec
Format profile : [email protected]
Format settings : CABAC / 1 Ref Frames
Format settings, CABAC : Yes
Format settings, Reference frames : 1 frame
Codec ID : avc1
Codec ID/Info : Advanced Video Coding
Duration : 2 h 7 min
Bit rate mode : Variable
Bit rate : 886 kb/s
Maximum bit rate : 2 700 kb/s
Width : 1 280 pixels
Height : 544 pixels
Display aspect ratio : 2.35:1
Frame rate mode : Constant
Frame rate : 24.000 FPS
Color space : YUV
Chroma subsampling : 4:2:0
Bit depth : 8 bits
Scan type : Progressive
Bits/(Pixel*Frame) : 0.053
Stream size : 805 MiB (72%)
Codec configuration box : avcC

Audio
ID : 2
Format : AAC LC
Format/Info : Advanced Audio Codec Low Complexity
Codec ID : mp4a-40-2
Duration : 2 h 7 min
Bit rate mode : Variable
Bit rate : 332 kb/s
Maximum bit rate : 341 kb/s
Channel(s) : 6 channels
Channel layout : C L R Ls Rs LFE
Sampling rate : 48.0 kHz
Frame rate : 46.875 FPS (1024 SPF)
Compression mode : Lossy
Stream size : 302 MiB (27%)
Language : Hindi
Default : Yes
Alternate group : 1




********************************************************


[quote]

Files:

Shakuntala.Devi.2020.720p.AMZN.WEBRip.6CH.x264.LLG
  • SAMPLE.mp4 (7.5 MB)
  • Shakuntala.Devi.2020.720p.AMZN.WEBRip.6CH.x264.LLG.mp4 (1.1 GB)

There are currently no comments. Feel free to leave one :)

Code:

  • udp://tracker.openbittorrent.com:80/announce
  • udp://tracker.opentrackr.org:1337/announce
  • UDP://TRACKER.LEECHERS-PARADISE.ORG:6969/ANNOUNCE