DDFBusty.20.08.01.Marta.La.Croft.Trainer.Works.Her.Titties.Out.XX...

  • Category XXX
  • Type Video
  • Language English
  • Total size 230.2 MB
  • Uploaded By ecs99
  • Downloads 375
  • Last checked 1 week ago
  • Date uploaded 1 week ago
  • Seeders 2
  • Leechers 0

Infohash : A8EF74D5F436E473FAAFC6BDC1ACD3B2C1FEC41D


https://extremlymtorrents.ws/file.php?id=3395080




[MediaInfo]General
Complete name : ExtremlymTorrents.\DDFBusty.20.08.01.Marta.La.Croft.Trainer.Works.Her.Titties.Out.XXX.SD.MP4-ExtremlymTorrents.mp4
Format : MPEG-4
Format profile : Base Media
Codec ID : isom (isom/iso2/avc1/mp41)
File size : 229 MiB
Duration : 28 min 13 s
Overall bit rate : 1 134 kb/s
Tagged date : UTC 2020-08-01 03:24:50
Writing application : Lavf58.20.100
Comment : ExtremlymTorrents

Video
ID : 1
Format : AVC
Format/Info : Advanced Video Codec
Format profile : [email protected]
Format settings : CABAC / 5 Ref Frames
Format settings, CABAC : Yes
Format settings, Reference frames : 5 frames
Codec ID : avc1
Codec ID/Info : Advanced Video Coding
Duration : 28 min 12 s
Bit rate : 1 000 kb/s
Width : 720 pixels
Height : 400 pixels
Display aspect ratio : 16:9
Frame rate mode : Constant
Frame rate : 29.970 (30000/1001) FPS
Color space : YUV
Chroma subsampling : 4:2:0
Bit depth : 8 bits
Scan type : Progressive
Bits/(Pixel*Frame) : 0.116
Stream size : 201 MiB (88%)

Encoding settings : cabac=1 / ref=5 / deblock=1:0:0 / analyse=0x3:0x113 / me=hex / subme=8 / psy=1 / psy_rd=1.00:0.00 / mixed_ref=1 / me_range=16 / chroma_me=1 / trellis=2 / 8x8dct=1 / cqm=0 / deadzone=21,11 / fast_pskip=1 / chroma_qp_offset=-2 / threads=12 / lookahead_threads=2 / sliced_threads=0 / nr=0 / decimate=1 / interlaced=0 / bluray_compat=0 / constrained_intra=0 / bframes=3 / b_pyramid=2 / b_adapt=1 / b_bias=0 / direct=3 / weightb=1 / open_gop=0 / weightp=2 / keyint=250 / keyint_min=25 / scenecut=40 / intra_refresh=0 / rc_lookahead=50 / rc=abr / mbtree=1 / bitrate=1000 / ratetol=1.0 / qcomp=0.60 / qpmin=0 / qpmax=69 / qpstep=4 / ip_ratio=1.40 / aq=1:1.00
Encoded date : UTC 2020-08-01 03:24:50
Tagged date : UTC 2020-08-01 03:24:50
Codec configuration box : avcC

Audio
ID : 2
Format : AAC LC
Format/Info : Advanced Audio Codec Low Complexity
Codec ID : mp4a-40-2
Duration : 28 min 13 s
Bit rate mode : Constant
Bit rate : 128 kb/s
Channel(s) : 2 channels
Channel layout : L R
Sampling rate : 48.0 kHz
Frame rate : 46.875 FPS (1024 SPF)
Compression mode : Lossy
Stream size : 25.9 MiB (11%)
Default : Yes
Alternate group : 1
Encoded date : UTC 2020-08-01 03:24:50
Tagged date : UTC 2020-08-01 03:24:50

[/MediaInfo]

Files:

DDFBusty.20.08.01.Marta.La.Croft.Trainer.Works.Her.Titties.Out.XXX.SD.MP4-ExtremlymTorrents.ws
  • Torrent Downloaded From ExtremlymTorrents.ws.txt (0.0 KB)
  • Downloaded from ExtremlymTorrents.ws.URL (0.2 KB)
  • MediaInfo.txt (4.0 KB)
  • DDFBusty.20.08.01.Marta.La.Croft.Trainer.Works.Her.Titties.Out.XXX.SD.MP4-ExtremlymTorrents.ws_preview.jpg (123.4 KB)
  • Poster.png (1.2 MB)
  • DDFBusty.20.08.01.Marta.La.Croft.Trainer.Works.Her.Titties.Out.XXX.SD.MP4-ExtremlymTorrents.ws.mp4 (228.9 MB)

There are currently no comments. Feel free to leave one :)

Code:

  • udp://extremlymtorrents.ws:9999/annouce
  • udp://tracker.leechers-paradise.org:6969/announce
  • udp://tracker.coppersurfer.tk:6969/announce
  • udp://tracker.leechers-paradise.org:6969/announce
  • udp://tracker.iamhansen.xyz:2000/announce
  • udp://denis.stalker.upeer.me:6969/announce
  • udp://tracker.torrent.eu.org:451/announce
  • udp://tracker.opentrackr.org:1337/announce
  • http://tracker.tvunderground.org.ru:3218/announce
  • udp://open.demonii.si:1337/announce
  • udp://exodus.desync.com:6969/announce
  • udp://tracker.tiny-vps.com:6969/announce
  • udp://open.stealth.si:80/announce
  • http://tracker3.itzmx.com:8080/announce
  • http://91.217.91.21:3218/announce
  • http://tracker.yoshi210.com:6969/announce
  • http://tracker2.itzmx.com:6961/announce