Red Dwarf (1988) S01 (1080p BDRip x265 10bit EAC3 2.0 - WEM)[TAoE...

  • Category TV
  • Type HEVC/x265
  • Language English
  • Total size 9.6 GB
  • Uploaded By Goki
  • Downloads 124
  • Last checked 6 days ago
  • Date uploaded 1 week ago
  • Seeders 9
  • Leechers 5

Infohash : 540A665265EEE8F3F86D45B30D963ECD20DB02C0



Hello everyone,
We are TAoE, a small team of passionate encoders who love encoding. We try our best to provide you with high quality releases.

Requests for movies and shows are welcome.
We have a form for encode requests which can be found here
Encode requests form
submit your request and it will be added to our encoding request list
You can view our encoding request list here
Encode requests list


When or if we encode it will depend on if we can obtain a good source to encode with and
if one of the TAoE encoders chooses to encode it. Unfortunately we are not able to encode everything,
new members are welcome as that helps us encode more content!

If you would like to join TAoE submit your request here!
TAoE member applications form



Red Dwarf (1988) IMDB














Media Information


General
Unique ID : 189345139602951436824419543526561616666 (0x8E728C239F43E8A88708AF54ADE5131A)
Complete name : D:\TAoE Uploads\Red Dwarf (1988) S01 (1080p BDRip x265 10bit EAC3 2.0 - WEM)[TAoE]\Red Dwarf (1988) S01E01 - The End (1080p BDRip x265 10bit EAC3 2.0 - WEM)[TAoE].mkv
Format : Matroska
Format version : Version 4
File size : 1.77 GiB
Duration : 30 min 3 s
Overall bit rate : 8 451 kb/s
Writing application : Lavf58.29.100
Writing library : Lavf58.29.100
ErrorDetectionType : Per level 1

Video
ID : 1
Format : HEVC
Format/Info : High Efficiency Video Coding
Format profile : Main [email protected]@Main
Codec ID : V_MPEGH/ISO/HEVC
Duration : 30 min 3 s
Bit rate : 7 809 kb/s
Width : 1 440 pixels
Height : 1 072 pixels
Display aspect ratio : 4:3
Frame rate mode : Variable
Frame rate : 25.000 FPS
Color space : YUV
Chroma subsampling : 4:2:0
Bit depth : 10 bits
Bits/(Pixel*Frame) : 0.202
Stream size : 1.64 GiB (92%)
Title : Encoded by WEM for TAoE using Shinguru V1.9
Writing library : x265 3.2+35-acc5d16999e2:[Windows][GCC 9.2.1][64 bit] 10bit
Encoding settings : cpuid=1111039 / frame-threads=4 / numa-pools=24 / wpp / no-pmode / no-pme / no-psnr / no-ssim / log-level=2 / input-csp=1 / input-res=1440x1072 / interlace=0 / total-frames=0 / level-idc=0 / high-tier=1 / uhd-bd=0 / ref=4 / no-allow-non-conformance / no-repeat-headers / annexb / no-aud / no-hrd / info / hash=0 / no-temporal-layers / open-gop / min-keyint=25 / keyint=250 / gop-lookahead=0 / bframes=8 / b-adapt=2 / b-pyramid / bframe-bias=0 / rc-lookahead=80 / lookahead-slices=4 / scenecut=40 / hist-scenecut=0 / radl=0 / no-splice / no-intra-refresh / ctu=64 / min-cu-size=8 / no-rect / no-amp / max-tu-size=32 / tu-inter-depth=1 / tu-intra-depth=1 / limit-tu=0 / rdoq-level=2 / dynamic-rd=0.00 / no-ssim-rd / signhide / no-tskip / nr-intra=0 / nr-inter=0 / no-constrained-intra / no-strong-intra-smoothing / max-merge=3 / limit-refs=3 / limit-modes / me=3 / subme=5 / merange=57 / temporal-mvp / no-frame-dup / no-hme / weightp / no-weightb / no-analyze-src-pics / deblock=0:0 / sao / no-sao-non-deblock / rd=4 / selective-sao=4 / no-early-skip / rskip / no-fast-intra / no-tskip-fast / no-cu-lossless / no-b-intra / no-splitrd-skip / rdpenalty=0 / psy-rd=1.30 / psy-rdoq=2.00 / no-rd-refine / no-lossless / cbqpoffs=0 / crqpoffs=0 / rc=crf / crf=21.0 / qcomp=0.60 / qpstep=4 / stats-write=0 / stats-read=0 / ipratio=1.40 / pbratio=1.30 / aq-mode=4 / aq-strength=1.10 / cutree / zone-count=0 / no-strict-cbr / qg-size=32 / no-rc-grain / qpmax=69 / qpmin=0 / no-const-vbv / sar=1 / overscan=0 / videoformat=5 / range=0 / colorprim=2 / transfer=2 / colormatrix=2 / chromaloc=0 / display-window=0 / cll=0,0 / min-luma=0 / max-luma=1023 / log2-max-poc-lsb=8 / vui-timing-info / vui-hrd-info / slices=1 / no-opt-qp-pps / no-opt-ref-list-length-pps / no-multi-pass-opt-rps / scenecut-bias=0.05 / hist-threshold=0.01 / no-opt-cu-delta-qp / no-aq-motion / no-hdr10 / no-hdr10-opt / no-dhdr10-opt / no-idr-recovery-sei / analysis-reuse-level=0 / analysis-save-reuse-level=0 / analysis-load-reuse-level=0 / scale-factor=0 / refine-intra=0 / refine-inter=0 / refine-mv=1 / refine-ctu-distortion=0 / no-limit-sao / ctu-info=0 / no-lowpass-dct / refine-analysis-type=0 / copy-pic=1 / max-ausize-factor=1.0 / no-dynamic-refine / no-single-sei / no-hevc-aq / no-svt / no-field / qp-adaptation-range=1.00 / no-scenecut-aware-qpconformance-window-offsets / right=0 / bottom=0
Default : Yes
Forced : No
Color range : Limited

Audio #1
ID : 2
Format : E-AC-3
Format/Info : Enhanced AC-3
Commercial name : Dolby Digital Plus
Codec ID : A_EAC3
Duration : 30 min 3 s
Bit rate mode : Constant
Bit rate : 192 kb/s
Channel(s) : 2 channels
Channel layout : L R
Sampling rate : 48.0 kHz
Frame rate : 31.250 FPS (1536 SPF)
Bit depth : 16 bits
Compression mode : Lossy
Stream size : 126 MiB (7%)
Writing library : Lavc58.54.100 eac3
Language : English
Service kind : Complete Main
Default : Yes
Forced : No

Audio #2
ID : 3
Format : E-AC-3
Format/Info : Enhanced AC-3
Commercial name : Dolby Digital Plus
Codec ID : A_EAC3
Duration : 30 min 3 s
Bit rate mode : Constant
Bit rate : 192 kb/s
Channel(s) : 2 channels
Channel layout : L R
Sampling rate : 48.0 kHz
Frame rate : 31.250 FPS (1536 SPF)
Bit depth : 32 bits
Compression mode : Lossy
Stream size : 96.3 MiB (5%)
Title : Commentary by actors Craig Charles, Chris Barrie, Norman Lovett and Danny John-Jules
Writing library : Lavc58.54.100 eac3
Language : English
Service kind : Complete Main
Default : No
Forced : No

Audio #3
ID : 4
Format : E-AC-3
Format/Info : Enhanced AC-3
Commercial name : Dolby Digital Plus
Codec ID : A_EAC3
Duration : 30 min 3 s
Bit rate mode : Constant
Bit rate : 192 kb/s
Channel(s) : 2 channels
Channel layout : L R
Sampling rate : 48.0 kHz
Frame rate : 31.250 FPS (1536 SPF)
Bit depth : 32 bits
Compression mode : Lossy
Stream size : 96.3 MiB (5%)
Title : Commentary by creators Rob Grant and Doug Naylor and writer Ed Bye
Writing library : Lavc58.54.100 eac3
Language : English
Service kind : Complete Main
Default : No
Forced : No

Text
ID : 5
Format : PGS
Codec ID : S_HDMV/PGS
Codec ID/Info : Picture based subtitle format used on BDs/HD-DVDs
Duration : 29 min 13 s
Bit rate : 60.9 kb/s
Count of elements : 1162
Stream size : 12.7 MiB (1%)
Title : English (SDH)
Language : English
Default : No
Forced : No

Menu
00:00:00.000 : :Play Ep.
00:01:02.400 : :Technicians
00:05:49.680 : :Five Year Plan
00:09:27.560 : :George McIntyre
00:16:32.200 : :Where's the Cat
00:19:37.400 : :Everybody's Dead, Dave
00:29:08.680 : :Credits

Source


General
Unique ID : 317044119426785914584161617240156761281 (0xEE8479F0BC7808C2713F62C1417F6CC1)
Complete name : source1\crf21dacropc\Red.Dwarf.S01E02.Future.Echoes.1080p.FLAC.2.0.AVC.REMUX-FraMeSToR.mkv
Format : Matroska
Format version : Version 4
File size : 5.85 GiB
Duration : 28 min 56 s
Overall bit rate mode : Variable
Overall bit rate : 29.0 Mb/s
Encoded date : UTC 2019-08-18 10:41:22
Writing application : mkvmerge v35.0.0 ('All The Love In The World') 64-bit
Writing library : libebml v1.3.9 + libmatroska v1.5.2

Video
ID : 1
Format : AVC
Format/Info : Advanced Video Codec
Format profile : [email protected]
Format settings : CABAC / 4 Ref Frames
Format settings, CABAC : Yes
Format settings, Reference frames : 4 frames
Codec ID : V_MPEG4/ISO/AVC
Duration : 28 min 56 s
Bit rate mode : Variable
Bit rate : 27.9 Mb/s
Maximum bit rate : 33.0 Mb/s
Width : 1 920 pixels
Height : 1 080 pixels
Display aspect ratio : 16:9
Frame rate mode : Constant
Frame rate : 25.000 FPS
Color space : YUV
Chroma subsampling : 4:2:0
Bit depth : 8 bits
Scan type : MBAFF
Scan type, store method : Interleaved fields
Scan order : Top Field First
Bits/(Pixel*Frame) : 0.538
Stream size : 5.64 GiB (96%)
Default : Yes
Forced : No

Audio #1
ID : 2
Format : FLAC
Format/Info : Free Lossless Audio Codec
Codec ID : A_FLAC
Duration : 28 min 56 s
Bit rate mode : Variable
Bit rate : 565 kb/s
Channel(s) : 2 channels
Channel layout : L R
Sampling rate : 48.0 kHz
Frame rate : 11.719 FPS (4096 SPF)
Bit depth : 16 bits
Compression mode : Lossless
Stream size : 117 MiB (2%)
Writing library : libFLAC 1.2.1 (UTC 2007-09-17)
Language : English
Default : Yes
Forced : No

Audio #2
ID : 3
Format : AC-3
Format/Info : Audio Coding 3
Commercial name : Dolby Digital
Codec ID : A_AC3
Duration : 28 min 56 s
Bit rate mode : Constant
Bit rate : 448 kb/s
Channel(s) : 2 channels
Channel layout : L R
Sampling rate : 48.0 kHz
Frame rate : 31.250 FPS (1536 SPF)
Compression mode : Lossy
Stream size : 92.7 MiB (2%)
Title : Commentary by actors Craig Charles, Chris Barrie, Norman Lovett and Danny John-Jules
Language : English
Service kind : Complete Main
Default : No
Forced : No

Text
ID : 4
Format : PGS
Codec ID : S_HDMV/PGS
Codec ID/Info : Picture based subtitle format used on BDs/HD-DVDs
Duration : 28 min 1 s
Bit rate : 60.9 kb/s
Count of elements : 1144
Stream size : 12.2 MiB (0%)
Title : English (SDH)
Language : English
Default : No
Forced : No

Menu
00:00:00.000 : en:Play Ep.
00:01:37.840 : en:Black Coffee
00:05:35.480 : en:Lennon & McCartney
00:10:39.600 : en:Light Speed
00:14:38.000 : en:Double Rimmer
00:24:15.400 : en:Lister's Death
00:27:59.880 : en:Credits

Files:

Red Dwarf (1988) S01 (1080p BDRip x265 10bit EAC3 2.0 - WEM)[TAoE]
  • Red Dwarf (1988) S01E01 - The End (1080p BDRip x265 10bit EAC3 2.0 - WEM)[TAoE].mkv (1.8 GB)
  • Red Dwarf (1988) S01E02 - Future Echoes (1080p BDRip x265 10bit EAC3 2.0 - WEM)[TAoE].mkv.mkv (1.4 GB)
  • Red Dwarf (1988) S01E03 - Balance of Power (1080p BDRip x265 10bit EAC3 2.0 - WEM)[TAoE].mkv.mkv (1.7 GB)
  • Red Dwarf (1988) S01E04 - Waiting for God (1080p BDRip x265 10bit EAC3 2.0 - WEM)[TAoE].mkv.mkv (1.5 GB)
  • Red Dwarf (1988) S01E05 - Confidence and Paranoia (1080p BDRip x265 10bit EAC3 2.0 - WEM)[TAoE].mkv.mkv (1.7 GB)
  • Red Dwarf (1988) S01E06 - Me2 (1080p BDRip x265 10bit EAC3 2.0 - WEM)[TAoE].mkv.mkv (1.5 GB)

Comments

Code:

  • udp://tracker.coppersurfer.tk:6969/announce
  • udp://tracker.internetwarriors.net:1337/announce
  • http://tracker.opentrackr.org:1337/announce
  • udp://denis.stalker.upeer.me:6969/announce
  • udp://tracker.internetwarriors.net:1337
  • udp://9.rarbg.me:2720/announce
  • udp://explodie.org:6969/announce
  • udp://tracker.cyberia.is:6969/announce
  • udp://thetracker.org/announce
  • udp://open.demonii.si:1337/announce