The Lord of The Rings The Two Towers (2002) Theatrical Cut + Feat...

  • Category Movies
  • Type HEVC/x265
  • Language English
  • Total size 8.8 GB
  • Uploaded By UTRCorp
  • Downloads 206
  • Last checked 1 week ago
  • Date uploaded 2 weeks ago
  • Seeders 19
  • Leechers 7

The Lord of the Rings: The Two Towe...

ActionAdventureFantasy

Frodo and Sam are trekking to Mordor to destroy the One Ring of Power while Gimli, Legolas and Aragorn search for the orc-captured Merry and Pippin. All along, nefarious wizard Saruman awaits the Fellowship members at the Orthanc Tower in Isengard.

Infohash : 7E1D19E301763BBD23D69830916D2A3D6A47D84B


Media Information
I refuse to be limited to the sources that the studios let us have. As such I used AI Inference Software and days of processing to create a new souce sharp and clean of compression artifacts. Enjoy this world exclusive 4K Source from the good people at UTR - JoyBell

Q: BUT I WANTED THE SUPER SPECIAL EXTENDED 20 HOUR EDITION!!!!
A: No.

Media Information

Code:

General
Format : Matroska
Format version : Version 4 / Version 2
File size : 6.29 GiB
Duration : 2 h 59 min
Overall bit rate : 5 020 kb/s
Movie name : The Lord of The Rings The Two Towers (2002) Theatrical Cut [1080p x265 q22 FS91 Joy] [UTR]
Encoded date : UTC 2020-07-29 16:27:40
Writing application : mkvmerge v48.0.0 ('Fortress Around Your Heart') 64-bit
Writing library : libebml v1.4.0 + libmatroska v1.6.0
Cover : Yes
Attachments : cover.jpg

Video
ID : 1
Format : HEVC
Format/Info : High Efficiency Video Coding
Format profile : Main [email protected]@Main
Codec ID : V_MPEGH/ISO/HEVC
Duration : 2 h 59 min
Bit rate : 4 504 kb/s
Width : 1 920 pixels
Height : 800 pixels
Display aspect ratio : 2.40:1
Frame rate mode : Constant
Frame rate : 23.976 (24000/1001) FPS
Color space : YUV
Chroma subsampling : 4:2:0
Bit depth : 10 bits
Bits/(Pixel*Frame) : 0.122
Stream size : 5.65 GiB (90%)
Writing library : x265 3.2+9-971180b100f8:[Windows][GCC 9.2.0][64 bit] 10bit
Encoding settings : cpuid=1111039 / frame-threads=3 / numa-pools=12 / wpp / no-pmode / no-pme / no-psnr / ssim / log-level=2 / input-csp=1 / input-res=1920x800 / interlace=0 / total-frames=258120 / level-idc=0 / high-tier=1 / uhd-bd=0 / ref=4 / no-allow-non-conformance / no-repeat-headers / annexb / no-aud / no-hrd / info / hash=0 / no-temporal-layers / open-gop / min-keyint=23 / keyint=250 / gop-lookahead=0 / bframes=8 / b-adapt=2 / b-pyramid / bframe-bias=40 / rc-lookahead=80 / lookahead-slices=4 / scenecut=40 / radl=0 / no-splice / no-intra-refresh / ctu=64 / min-cu-size=8 / rect / no-amp / max-tu-size=32 / tu-inter-depth=1 / tu-intra-depth=1 / limit-tu=0 / rdoq-level=2 / dynamic-rd=0.00 / ssim-rd / signhide / no-tskip / nr-intra=0 / nr-inter=0 / constrained-intra / strong-intra-smoothing / max-merge=5 / limit-refs=3 / limit-modes / me=3 / subme=7 / merange=57 / temporal-mvp / no-frame-dup / no-hme / weightp / no-weightb / no-analyze-src-pics / deblock=-3:-3 / sao / no-sao-non-deblock / rd=4 / selective-sao=4 / early-skip / rskip / no-fast-intra / no-tskip-fast / no-cu-lossless / no-b-intra / no-splitrd-skip / rdpenalty=0 / psy-rd=3.50 / psy-rdoq=2.50 / no-rd-refine / no-lossless / cbqpoffs=0 / crqpoffs=0 / rc=crf / crf=22.0 / qcomp=0.60 / qpstep=4 / stats-write=0 / stats-read=0 / ipratio=1.40 / pbratio=1.30 / aq-mode=3 / aq-strength=0.40 / cutree / zone-count=0 / no-strict-cbr / qg-size=32 / no-rc-grain / qpmax=69 / qpmin=0 / no-const-vbv / sar=0 / overscan=0 / videoformat=5 / range=0 / colorprim=2 / transfer=2 / colormatrix=2 / chromaloc=0 / display-window=0 / cll=0,0 / min-luma=0 / max-luma=1023 / log2-max-poc-lsb=8 / vui-timing-info / vui-hrd-info / slices=1 / no-opt-qp-pps / no-opt-ref-list-length-pps / no-multi-pass-opt-rps / scenecut-bias=0.05 / no-opt-cu-delta-qp / no-aq-motion / no-hdr / no-hdr-opt / no-dhdr10-opt / no-idr-recovery-sei / analysis-reuse-level=5 / scale-factor=0 / refine-intra=0 / refine-inter=0 / refine-mv=1 / refine-ctu-distortion=0 / no-limit-sao / ctu-info=0 / no-lowpass-dct / refine-analysis-type=0 / copy-pic=1 / max-ausize-factor=1.0 / no-dynamic-refine / no-single-sei / no-hevc-aq / no-svt / no-field / qp-adaptation-range=1.00
Default : Yes
Forced : No

Audio
ID : 2
Format : AAC
Format/Info : Advanced Audio Codec
Format profile : LC
Codec ID : A_AAC
Duration : 2 h 59 min
Bit rate : 454 kb/s
Channel(s) : 8 channels
Channel positions : Front: L C R, Side: L R, Back: L R, LFE
Sampling rate : 48.0 kHz
Frame rate : 46.875 FPS (1024 spf)
Compression mode : Lossy
Delay relative to video : 9 ms
Stream size : 583 MiB (9%)
Language : English
Default : No
Forced : No

Subtitle #1
ID : 3
Format : PGS
Muxing mode : zlib
Codec ID : S_HDMV/PGS
Codec ID/Info : Picture based subtitle format used on BDs/HD-DVDs
Duration : 1 h 41 min
Bit rate : 612 b/s
Count of elements : 82
Stream size : 454 KiB (0%)
Title : Forced for foreign parts
Language : English
Default : No
Forced : Yes

Subtitle #2
ID : 4
Format : PGS
Muxing mode : zlib
Codec ID : S_HDMV/PGS
Codec ID/Info : Picture based subtitle format used on BDs/HD-DVDs
Duration : 2 h 50 min
Bit rate : 20.2 kb/s
Count of elements : 3372
Stream size : 24.6 MiB (0%)
Title : SDH
Language : English
Default : No
Forced : No

Subtitle #3
ID : 5
Format : VobSub
Muxing mode : zlib
Codec ID : S_VOBSUB
Codec ID/Info : Picture based subtitle format used on DVDs
Duration : 2 h 58 min
Bit rate : 3 183 b/s
Count of elements : 1531
Stream size : 4.07 MiB (0%)
Language : Arabic
Default : No
Forced : No

Subtitle #4
ID : 6
Format : VobSub
Muxing mode : zlib
Codec ID : S_VOBSUB
Codec ID/Info : Picture based subtitle format used on DVDs
Duration : 2 h 58 min
Bit rate : 5 129 b/s
Count of elements : 1530
Stream size : 6.53 MiB (0%)
Language : Bulgarian
Default : No
Forced : No

Subtitle #5
ID : 7
Format : VobSub
Muxing mode : zlib
Codec ID : S_VOBSUB
Codec ID/Info : Picture based subtitle format used on DVDs
Duration : 2 h 58 min
Bit rate : 4 583 b/s
Count of elements : 1531
Stream size : 5.86 MiB (0%)
Language : Chinese
Default : No
Forced : No

Subtitle #6
ID : 8
Format : VobSub
Muxing mode : zlib
Codec ID : S_VOBSUB
Codec ID/Info : Picture based subtitle format used on DVDs
Duration : 2 h 58 min
Bit rate : 4 562 b/s
Count of elements : 1429
Stream size : 5.83 MiB (0%)
Language : Croatian
Default : No
Forced : No

Subtitle #7
ID : 9
Format : VobSub
Muxing mode : zlib
Codec ID : S_VOBSUB
Codec ID/Info : Picture based subtitle format used on DVDs
Duration : 2 h 58 min
Bit rate : 4 898 b/s
Count of elements : 1146
Stream size : 6.26 MiB (0%)
Language : Czech
Default : No
Forced : No

Subtitle #8
ID : 10
Format : VobSub
Muxing mode : zlib
Codec ID : S_VOBSUB
Codec ID/Info : Picture based subtitle format used on DVDs
Duration : 2 h 58 min
Bit rate : 5 649 b/s
Count of elements : 1116
Stream size : 7.22 MiB (0%)
Language : Estonian
Default : No
Forced : No

Subtitle #9
ID : 11
Format : VobSub
Muxing mode : zlib
Codec ID : S_VOBSUB
Codec ID/Info : Picture based subtitle format used on DVDs
Duration : 2 h 58 min
Bit rate : 5 051 b/s
Count of elements : 1396
Stream size : 6.46 MiB (0%)
Language : Hungarian
Default : No
Forced : No

Subtitle #10
ID : 12
Format : VobSub
Muxing mode : zlib
Codec ID : S_VOBSUB
Codec ID/Info : Picture based subtitle format used on DVDs
Duration : 2 h 58 min
Bit rate : 4 848 b/s
Count of elements : 1531
Stream size : 6.20 MiB (0%)
Language : Korean
Default : No
Forced : No

Subtitle #11
ID : 13
Format : VobSub
Muxing mode : zlib
Codec ID : S_VOBSUB
Codec ID/Info : Picture based subtitle format used on DVDs
Duration : 2 h 58 min
Bit rate : 5 174 b/s
Count of elements : 1513
Stream size : 6.62 MiB (0%)
Language : Latvian
Default : No
Forced : No

Subtitle #12
ID : 14
Format : VobSub
Muxing mode : zlib
Codec ID : S_VOBSUB
Codec ID/Info : Picture based subtitle format used on DVDs
Duration : 2 h 58 min
Bit rate : 4 646 b/s
Count of elements : 1361
Stream size : 5.94 MiB (0%)
Language : Polish
Default : No
Forced : No

Subtitle #13
ID : 15
Format : VobSub
Muxing mode : zlib
Codec ID : S_VOBSUB
Codec ID/Info : Picture based subtitle format used on DVDs
Duration : 2 h 58 min
Bit rate : 5 868 b/s
Count of elements : 1531
Stream size : 7.50 MiB (0%)
Language : Portuguese
Default : No
Forced : No

Subtitle #14
ID : 16
Format : VobSub
Muxing mode : zlib
Codec ID : S_VOBSUB
Codec ID/Info : Picture based subtitle format used on DVDs
Duration : 2 h 58 min
Bit rate : 5 873 b/s
Count of elements : 1338
Stream size : 7.51 MiB (0%)
Language : Romanian
Default : No
Forced : No

Subtitle #15
ID : 17
Format : VobSub
Muxing mode : zlib
Codec ID : S_VOBSUB
Codec ID/Info : Picture based subtitle format used on DVDs
Duration : 2 h 58 min
Bit rate : 5 343 b/s
Count of elements : 1463
Stream size : 6.83 MiB (0%)
Language : Russian
Default : No
Forced : No

Subtitle #16
ID : 18
Format : VobSub
Muxing mode : zlib
Codec ID : S_VOBSUB
Codec ID/Info : Picture based subtitle format used on DVDs
Duration : 2 h 58 min
Bit rate : 5 072 b/s
Count of elements : 1530
Stream size : 6.48 MiB (0%)
Language : Serbian
Default : No
Forced : No

Subtitle #17
ID : 19
Format : VobSub
Muxing mode : zlib
Codec ID : S_VOBSUB
Codec ID/Info : Picture based subtitle format used on DVDs
Duration : 2 h 58 min
Bit rate : 4 308 b/s
Count of elements : 1148
Stream size : 5.51 MiB (0%)
Language : Slovenian
Default : No
Forced : No

Subtitle #18
ID : 20
Format : VobSub
Muxing mode : zlib
Codec ID : S_VOBSUB
Codec ID/Info : Picture based subtitle format used on DVDs
Duration : 2 h 58 min
Bit rate : 4 753 b/s
Count of elements : 1531
Stream size : 6.08 MiB (0%)
Language : Thai
Default : No
Forced : No

Menu
00:00:00.000 : en:The Foundations of Stone
00:04:08.748 : en:The Taming of Smeagol
00:11:32.150 : en:The Uruk-Hai
00:12:17.695 : en:The Three Hunters
00:14:27.200 : en:The Burning of the Westfold
00:17:30.549 : en:The Banishment of Omer
00:20:18.592 : en:On the Trail of the Uruk-Hai
00:21:12.730 : en:Night Camp at Fangorn
00:24:11.075 : en:The Riders of Rohan
00:28:19.031 : en:Traces of Merry and Pippin
00:30:50.766 : en:Treebeard
00:34:19.683 : en:The Passage of the Marshes
00:41:18.601 : en:The White Rider
00:46:55.271 : en:Fangorn Forest
00:47:35.436 : en:The Black Gate Is Closed
00:52:53.128 : en:The King of the Golden Hall
01:04:21.649 : en:Simbelmyn on the Burial Mounds
01:06:14.429 : en:The King's Decision
01:09:25.203 : en:A Daughter of Kings
01:10:51.247 : en:Exodus From Edoras
01:11:55.853 : en:The Forests of Ithilien
01:13:38.497 : en:Gollum and Smeagol
01:16:08.981 : en:Of Herbs and Stewed Rabbit
01:20:35.998 : en:Dwarf Women
01:21:32.387 : en:The Evenstar
01:26:01.406 : en:The Wolves of Isengard
01:32:39.304 : en:Helm's Deep
01:35:05.909 : en:Isengard Unleashed
01:37:42.398 : en:The Grace of the Valar
01:39:22.039 : en:Arwen's Fate
01:43:02.718 : en:The Story Foreseen From Lorien
01:45:28.697 : en:The Window on the West
01:48:24.415 : en:The Forbidden Pool
01:55:44.813 : en:Aragorn's Return
02:01:18.062 : en:Entmoot
02:02:37.934 : en:The Glittering Caves
02:04:36.177 : en:"Where Is the Horse and the Rider?"
02:06:20.907 : en:The Host of the Eldar
02:09:53.327 : en:The Battle of the Hornburg
02:16:09.286 : en:Old Entish
02:17:48.635 : en:The Breach of the Deeping Wall
02:21:13.465 : en:The Entmoot Decides
02:22:58.612 : en:Retreat of the Hornburg
02:28:55.552 : en:Master Peregrin's Plan
02:30:20.345 : en:Osgiliath
02:30:55.088 : en:The Last March of the Ents
02:33:11.307 : en:The Nazgul Attack
02:35:43.292 : en:Forth Eorlingas
02:40:21.779 : en:The Flooding of Isengard
02:42:49.969 : en:The Tales That Really Mattered...
02:47:36.255 : en:"the Battle for Middle-Earth Is About to Begin"
02:49:15.937 : en:Gollum's Plan
02:51:42.459 : en:End Credits



Source Information

Code:

Release:
The.Lord.of.The.Rings.The.Two.Towers.2002 Theatrical Cut 2160p.AI.x264 [39.3 GB]


Code:


Note From UTR
Whilst we are happy for our releases to be re-posted on a platform we aren't on, please do so in an 'as-is' format. We ask that you do not create a new torrent, include all descriptions you see above including the UTR logo, tags, notes and screenshots. If you'd like to become a permanent poster on a website we don't post to, feel free to get in contact with a UTR member.
If possible please donate for seedboxes.
BTC - 1QA5fum5AyXvWzdVCkQzUNvw3Ef15fHRaR
Monero - 8AuksPSzY7fen3HHT1a2342PgVy4J93MKfXG3AAcayV76miTyJ3sNfn38srwrpLirGfeR5DwhTL8GW8pdQgT7bZcJ25ynMx
Dash - Xh4mNs6uwZdpCEX2HSEVwGvPD7yKxZ1Ccd
Ethereum - 0x51c06c94e74c16735a7a6e841ad29fc90a84eb1f



Files:

The Lord of The Rings The Two Towers (2002) Theatrical Cut [1080p x265 q22 FS91 Joy]
  • The Lord of The Rings The Two Towers (2002) Theatrical Cut [1080p x265 q22 FS91 Joy].mkv (6.3 GB)
  • folder.jpg (127.0 KB)
  • How to play HEVC (THIS FILE).txt (3.8 KB)
  • Ninite K-Lite Codecs Unattended Silent Installer and Updater.website (0.5 KB)
  • Encoded by JoyBell (UTR).txt (3.6 KB)
  • Featurettes
    • Behind the Scenes.mkv (708.9 MB)
    • Designing and Building Middle-Earth - Designing Middle-Earth (1080p x265 q24 Joy).mkv (201.4 MB)
    • Designing and Building Middle-Earth - Weta Workshop (1080p x265 q24 Joy).mkv (194.9 MB)
    • Easter Egg - MTV Best Virtual Performance Award (1080p x265 q24 Joy).mkv (10.3 MB)
    • Editorial - Refining the Story (1080p x265 q24 Joy).mkv (79.9 MB)
    • Filming - Cameras in Middle-Earth (1080p x265 q24 Joy).mkv (289.7 MB)
    • Filming - Warriors of the Third Age (1080p x265 q24 Joy).mkv (87.5 MB)
    • From Book to Script - Finding The Story (1080p x265 q24 Joy).mkv (64.0 MB)
    • Gollum - Andy Serkis Animation Reference (1080p x265 q24 Joy).mkv (3.4 MB)
    • Gollum - Gollum's Stand In (1080p x265 q24 Joy).mkv (17.1 MB)
    • Gollum - The Taming of Smeagol (1080p x265 q24 Joy).mkv (138.6 MB)
    • J.R.R. Tolkien - Origins of Middle-Earth (1080p x265 q24 Joy).mkv (102.9 MB)
    • Middle-Earth Atlas - Aragorn, Legolas, & Gimli (1080p x265 q24 Joy).mkv (15.6 MB)
    • Middle-Earth Atlas - Frodo and Sam (1080p x265 q24 Joy).mkv (15.2 MB)
    • Middle-Earth Atlas - Gandalf (1080p x265 q24 Joy).mkv (9.7 MB)
    • Middle-Earth Atlas - Merry & Pippin (1080p x265 q24 Joy).mkv (14.6 MB)
    • Music and Sound - Music For Middle-Earth (1080p x265 q24 Joy).mkv (103.2 MB)
    • Music and Sound - Sound Demonstration - Helm's Deep (1080p x265 q24 Joy).mkv (5.3 MB)
    • Music and Sound - The Soundscapes of Middle-Earth (1080p x265 q24 Joy).mkv (87.5 MB)
    • New Zealand as Middle-Earth (1080p x265 q24 Joy).mkv (84.4 MB)
    • The Appendices Part Four - The Battle For Middle-Earth Begins - Introduction.mkv (7.4 MB)
    • The Appendices Part Three - The Journey Continues... - Introduction (1080p x265 q24 Joy).mkv (8.3 MB)
    • The Battle For Helm's Deep Is Over.. (1080p x265 q24 Joy).mkv (35.9 MB)
    • Visual Effects - Miniatures - Big-atures (1080p x265 q24 Joy).mkv (95.0 MB)
    • Visual Effects - Miniatures - The Flooding of Isengard Animatic - Original Animatic.mkv (21.1 MB)
    • Visual Effects - Miniatures - The Flooding of Isengard Animatic - Split Screen Comparison.mkv (9.7 MB)
    • Visual Effects - Weta Digital (1080p x265 q24 Joy).mkv (123.2 MB)

Comments

Code:

  • udp://tracker.opentrackr.org:1337/announce
  • udp://9.rarbg.com:2710/announce
  • udp://9.rarbg.to:2710/announce
  • udp://tracker.torrent.eu.org:451/announce
  • udp://tracker.tiny-vps.com:6969/announce
  • udp://open.demonii.si:1337/announce
  • udp://exodus.desync.com:6969/announce