Girls.Guns.and.Blood.2019.HDRip.XviD.AC3.With.Sample.LLG

  • Category Movies
  • Type Divx/Xvid
  • Language English
  • Total size 1.0 GB
  • Uploaded By LifeLongg
  • Downloads 9872
  • Last checked 2 weeks ago
  • Date uploaded 2 weeks ago
  • Seeders 205
  • Leechers 116

Infohash : BDF02C64D484FC2F0CD134303BEE0748D1E2BD2F

Quote:




******************************Thumbnail:**********************



******************************Screenshots:********************

screenshot 1

screenshot 2

screenshot 3

screenshot 4

screenshot 5

screenshot 6

screenshot 7

screenshot 8

screenshot 9

screenshot 0


******************************************************

18+.Girls.Guns.and.Blood.2019.HDRip.XviD.AC3.With.Sample.LLG.mp4
Format : MPEG-4
Format profile : Base Media
Codec ID : isom (isom/iso2/avc1/mp41)
File size : 949 MiB
Duration : 1 h 15 min
Overall bit rate mode : Variable
Overall bit rate : 1 752 kb/s

Video
ID : 1
Format : AVC
Format/Info : Advanced Video Codec
Format profile : [email protected]
Format settings : CABAC / 1 Ref Frames
Format settings, CABAC : Yes
Format settings, Reference frames : 1 frame
Codec ID : avc1
Codec ID/Info : Advanced Video Coding
Duration : 1 h 15 min
Bit rate mode : Variable
Bit rate : 1 492 kb/s
Maximum bit rate : 4 500 kb/s
Width : 720 pixels
Height : 406 pixels
Display aspect ratio : 16:9
Frame rate mode : Constant
Frame rate : 23.976 (23976/1000) FPS
Color space : YUV
Chroma subsampling : 4:2:0
Bit depth : 8 bits
Scan type : Progressive
Bits/(Pixel*Frame) : 0.213
Stream size : 808 MiB (85%)

Audio
ID : 2
Format : AC-3
Format/Info : Audio Coding 3
Commercial name : Dolby Digital
Codec ID : ac-3
Duration : 1 h 15 min
Bit rate mode : Constant
Bit rate : 256 kb/s
Channel(s) : 2 channels
Channel layout : L R
Sampling rate : 48.0 kHz
Frame rate : 31.250 FPS (1536 SPF)
Compression mode : Lossy
Stream size : 139 MiB (15%)
Title : Stereo
Language : English
Service kind : Complete Main
Default : Yes
Alternate group : 1







********************************************************


[quote]

Files:

18+.Girls.Guns.and.Blood.2019.HDRip.XviD.AC3.With.Sample.LLG
  • MV5BMjU2M2JjNDk[email protected]@._V1_UY268_CR13,0,182,268_AL__QL50.jpg (5.3 KB)
  • Sample 2.ts (23.5 MB)
  • Sample.ts (68.3 MB)
  • 18+.Girls.Guns.and.Blood.2019.HDRip.XviD.AC3.With.Sample.LLG.mp4 (948.5 MB)

Comments

Code:

  • udp://tracker.openbittorrent.com:80/announce
  • udp://tracker.opentrackr.org:1337/announce
  • UDP://TRACKER.LEECHERS-PARADISE.ORG:6969/ANNOUNCE