Mr. Majnu (2020) Hindi 1080p WEBRip x264 x264 AAC 1.3GB [HDWebMov...

  • Category Movies
  • Type Bollywood
  • Language Hindi
  • Total size 1.3 GB
  • Uploaded By Suryadipta
  • Downloads 12507
  • Last checked 1 month ago
  • Date uploaded 1 month ago
  • Seeders 164
  • Leechers 71

Infohash : DFB2128DC077356AA544F31FB73402A1350BA63E




Movie name :


Mr. Majnu (2020) Hindi 1080p WEBRip x264 x264 AAC 1.3GB [HDWebMovies]


General
Format : Matroska
Format version : Version 4
File size : 1.34 GiB
Duration : 2 h 2 min
Overall bit rate : 1 565 kb/s
Movie name : BongxHD
Encoded date : UTC 2020-07-05 06:46:30
Writing application : mkvmerge v47.0.0 ('Black Flag') 32-bit
Writing library : libebml v1.3.10 + libmatroska v1.5.2

Video
ID : 1
Format : AVC
Format/Info : Advanced Video Codec
Format profile : [email protected]
Format settings : CABAC / 3 Ref Frames
Format settings, CABAC : Yes
Format settings, Reference frames : 3 frames
Codec ID : V_MPEG4/ISO/AVC
Duration : 2 h 2 min
Bit rate : 1 434 kb/s
Width : 1 920 pixels
Height : 1 080 pixels
Display aspect ratio : 16:9
Frame rate mode : Constant
Frame rate : 25.000 FPS
Color space : YUV
Chroma subsampling : 4:2:0
Bit depth : 8 bits
Scan type : Progressive
Bits/(Pixel*Frame) : 0.028
Stream size : 1.23 GiB (92%)
Title : BongxHD
Writing library : x264 core 155 r2901 7d0ff22
Default : Yes
Forced : No
Color range : Limited
Color primaries : BT.709
Transfer characteristics : BT.709
Matrix coefficients : BT.709

Audio
ID : 2
Format : AAC LC
Format/Info : Advanced Audio Codec Low Complexity
Codec ID : A_AAC-2
Duration : 2 h 2 min
Bit rate : 128 kb/s
Channel(s) : 2 channels
Channel layout : L R
Sampling rate : 44.1 kHz
Frame rate : 43.066 FPS (1024 SPF)
Compression mode : Lossy
Delay relative to video : 12 ms
Stream size : 112 MiB (8%)
Title : BongxHD
Language : Hindi
Default : Yes
Forced : No


                                       




[/center
[center]






Files:

  • Mr. Majnu (2020) Hindi 1080p WEBRip x264 x264 AAC 1.3GB.mkv (1.3 GB)

There are currently no comments. Feel free to leave one :)

Code:

  • udp://tracker.leechers-paradise.org:6969/announce
  • udp://tracker.coppersurfer.tk:6969/announce
  • udp://tracker.cyberia.is:6969/announce
  • udp://tracker.iamhansen.xyz:2000/announce
  • udp://p4p.arenabg.com:1337/announce
  • udp://explodie.org:6969/announce
  • udp://tracker.opentrackr.org:1337/announce
  • udp://tracker.tiny-vps.com:6969/announce
  • udp://exodus.desync.com:6969/announce
  • udp://tracker.torrent.eu.org:451/announce
  • udp://tracker.moeking.me:6969/announce
  • udp://ipv4.tracker.harry.lu:80/announce
  • udp://open.stealth.si:80/announce
  • udp://9.rarbg.to:2710/announce
  • udp://opentor.org:2710/announce