Arrow.S08E08.720p.HDTV.x264-SVA

  • Category TV
  • Type HD
  • Language English
  • Total size 876.0 MB
  • Uploaded By SirMadMax
  • Downloads 7294
  • Last checked 6 months ago
  • Date uploaded 6 months ago
  • Seeders 272
  • Leechers 25
80%
January 15, 2020, 3:00 am

Arrow

Stuck in the Vanishing Point, the Paragons search for a way to escape. The futility of the situation is compounded by The Flash’s disappearance. However, hope appears in the form of Oliver, who reveals that he has become something else. Meanwhile, the origin stories for The Monitor and Anti-Monitor are revealed.

Infohash : 3AE14AC3193B8F9E1AF17FFCA41372798936680A

Arrow.S08E08.720p.HDTV.x264-SVA

Season 08, Episode 08 – “CRISIS ON INFINITE EARTHS: PART FOUR”
Stuck in the Vanishing Point, the Paragons search for a way to escape. The futility of the situation is compounded by The Flash’s disappearance. However, hope appears in the form of Oliver, who reveals that he has become something else. Meanwhile, the origin stories for The Monitor and Anti-Monitor are revealed.

Video
ID : 1
Format : AVC
Format/Info : Advanced Video Codec
Format profile : [email protected]
Format settings : CABAC / 5 Ref Frames
Format settings, CABAC : Yes
Format settings, Reference frames : 5 frames
Codec ID : V_MPEG4/ISO/AVC
Duration : 41 min 43 s
Bit rate : 2 685 kb/s
Width : 1 280 pixels
Height : 718 pixels
Display aspect ratio : 16:9
Frame rate mode : Constant
Frame rate : 23.976 (24000/1001) FPS
Color space : YUV
Chroma subsampling : 4:2:0
Bit depth : 8 bits
Scan type : Progressive
Bits/(Pixel*Frame) : 0.122
Stream size : 801 MiB (91%)
Writing library : x264 core 159 r2991 1771b55
Encoding settings : cabac=1 / ref=5 / deblock=1:0:0 / analyse=0x3:0x113 / me=hex / subme=8 / psy=1 / psy_rd=1.00:0.00 / mixed_ref=1 / me_range=16 / chroma_me=1 / trellis=2 / 8x8dct=1 / cqm=0 / deadzone=21,11 / fast_pskip=1 / chroma_qp_offset=-2 / threads=22 / lookahead_threads=3 / sliced_threads=0 / nr=0 / decimate=1 / interlaced=0 / bluray_compat=0 / constrained_intra=0 / bframes=3 / b_pyramid=2 / b_adapt=1 / b_bias=0 / direct=3 / weightb=1 / open_gop=0 / weightp=2 / keyint=250 / keyint_min=23 / scenecut=40 / intra_refresh=0 / rc_lookahead=50 / rc=crf / mbtree=1 / crf=18.0 / qcomp=0.60 / qpmin=0 / qpmax=69 / qpstep=4 / ip_ratio=1.40 / aq=1:1.00
Default : Yes
Forced : No
Color range : Limited
Matrix coefficients : BT.709

Audio
ID : 2
Format : AC-3
Format/Info : Audio Coding 3
Commercial name : Dolby Digital
Codec ID : A_AC3
Duration : 41 min 43 s
Bit rate mode : Constant
Bit rate : 192 kb/s
Channel(s) : 2 channels
Channel layout : L R
Sampling rate : 48.0 kHz
Frame rate : 31.250 FPS (1536 SPF)
Bit depth : 16 bits
Compression mode : Lossy
Stream size : 57.3 MiB (7%)
Service kind : Complete Main
Default : Yes
Forced : No

Files:

Arrow.S08E08.720p.HDTV.x264-SVA[rarbg]
  • Arrow.S08E08.720p.HDTV.x264-SVA.mkv (876.0 MB)
  • RARBG.txt (0.0 KB)
  • RARBG_DO_NOT_MIRROR.exe (0.1 KB)
  • arrow.s08e08.720p.hdtv.x264-sva.nfo (4.4 KB)

There are currently no comments. Feel free to leave one :)

Code:

  • http://tracker.trackerfix.com:80/announce
  • udp://9.rarbg.me:2780/announce
  • udp://9.rarbg.to:2750/announce